We Remix Our Broken Bones (14 April – 10 August 2019)

This time it's another full-length remix album! In which I remixed the Abandoned Shorelines LP We Mend Our Broken Bones. And it is the first XR1300 release in 17 months. Phew.

 

  We Remix Our Broken Bones
We Remix Our Broken Bones
 

a companion to Owls (4:42)
geometry is evil (4:05)
aural interference (2:52)
a stranger's soft touch (2:06) [explicit]
iron skeletons (8:58)
above the floorboards (3:15)
Alexander the coppersmith (6:54)
and all we're left with is laughter (5:55)
lost in Montreal, dreaming of home (4:32)
meals for vultures (5:16)
we fell to Earth (6:42)
thank you Minnesota (5:15) [explicit]
flophouse circus (9:34)

total time: 70:07

[flac]
[flac]
[flac]
[flac]
[flac]
[flac]
[flac]
[flac]
[flac]
[flac]
[flac]
[flac]
[flac]

 

Look at the album artwork
Released: 13 December 2019
Catalog number:OSC059XR020LP70:07

 

samples

Alexander the coppersmith — contains samples of windy calm town dec 121230_02 by klankbeeld, and I would punch a bee before i would do that by AmeAngelofSin

A stranger's soft touch — contains a sample of skyline distant highway far haze from campground night1 by kyles.

meals for vultures — contains samples of de_que by Bram, and Fierro viejo / used items buyer by Davidmgarcia.

iron skeletons — contains a sample of skyline distant highway far haze from campground night1 by kyles.

A companion to Owls — contains samples of Female Tawny Owl by Benboncan.

lost in montreal — contains samples of metro subway Montreal leave right by kyles, train1 by Andrew Duke, and crowd terrasse by JFBSAUVE.

we fell to earth — contains a sample of skyline small town refineries industrial drone by kyles.

 

Dynamic range stats


----------------------------------------------------------------------------------------------
 DR		Peak		RMS		Filename
----------------------------------------------------------------------------------------------

 DR12		-0.62 dB 	-14.53 dB 	a companion to owls.wav
 DR12		-0.33 dB 	-14.13 dB 	geometry is evil.wav
 DR12		-0.40 dB 	-12.69 dB 	aural interference.wav
 DR13		-0.14 dB 	-16.18 dB 	a stranger's soft touch.wav
 DR14		-0.27 dB 	-15.86 dB 	iron skeletons.wav
 DR13		-0.24 dB 	-13.89 dB 	above the floorboards.wav
 DR11		-0.16 dB 	-12.63 dB 	Alexander the coppersmith.wav
 DR13		-0.34 dB 	-15.44 dB 	and all we're left with is laughter.wav
 DR11		-0.55 dB 	-13.10 dB 	lost in montreal dreaming of home.wav
 DR15		-0.89 dB 	-17.27 dB 	meals for vultures.wav
 DR9		-0.32 dB 	-10.77 dB 	we fell to earth.wav
 DR11		-0.47 dB 	-12.62 dB 	thank you Minnesota.wav
 DR12		-0.92 dB 	-14.29 dB 	flophouse circus.aif
 
----------------------------------------------------------------------------------------------

 Number of files:	13
 Official DR value:	DR12

==============================================================================================

 

Creative Commons License
We Remix Our Broken Bones by XR1300 is licensed under a Creative Commons Attribution-ShareAlike 3.0 Unported License.

 

 

back to the top
back to the index
send comments