Rose Fioriscono Di Nuovo (recorded, remixed, etc August 2015)

Rose Fioriscono Di Nuovo is a remix album. Five songs from La Giardino di Gigli Rosa, plus a remixed outtake (a track originally called Rub Fuck Dub, itself a remake of Yuri Trib Dub from Remixed and Remade) and a new track called Fun With A Tomboy.

The title is Italian for "Roses Bloom Again" Or that's what Google Translate told me anyway.

 

  Rose Fioriscono Di Nuovo
Rose Fioriscono Di Nuovo
 

fun with a tomboy (7:23) [explicit]
invasion of the dick girls (5:37) [explicit]
the thighs of Venus (6:40) [explicit]
Luna can't help us (6:00)
back on the streets again (2:57)
rub fuck house (8:00) [explicit]
space is for drifting (17:25)
total time: 53:59

[ flac ]
[ flac ]
[ flac ]
[ flac ]
[ flac ]
[ flac ]
[ flac ]

 

Look at the album artwork
Released: 13 August 2015
Catalog number: OSC030XR005LP53:59

samples

Invasion of the Dickgirls contains a sample of Jungle Rot Loop by NoiseCollector.

the thighs of Venus contains a sample of Mashed Breaks by VEXST.

Luna can't help us — contains samples of Solfeggio-Combination 174, 741 and 417 Hz by the_very_Real_Horst, and And in the name of the moon, I shall punish you! by albinwonderland.

back on the streets again — contains samples of Tawny Owls 2 by Benboncan, Ghostly Whispering by qubodup, monster drones by DJ Chronos and LatinHopHopMellow_136bpm from the same sample pack I got from usenet.

space is for drifting contains samples of discordant voices ew54b by ERH, Jupiter by theantralhead and haunting space3 by Sonic Sculptor.

 

Dynamic range stats

----------------------------------------------------------------------------------------------
 DR		Peak		RMS		Filename
----------------------------------------------------------------------------------------------
 DR12		-1.70 dB 	-14.61 dB 	01 fun with a tomboy.aif
 DR12		-0.23 dB 	-13.95 dB 	02 Invasion of the Dickgirls remix.aif
 DR12		-4.29 dB 	-18.55 dB 	03 the thighs of Venus remix.aif
 DR13		-0.88 dB 	-15.30 dB 	04 Luna can't help us remix.aif
 DR15		-0.56 dB 	-17.99 dB 	05 back on the streets again remix.aif
 DR13		-0.00 dB 	-14.02 dB 	06 rub fuck house.aif
 DR12		-0.30 dB 	-13.89 dB 	07 space is for drifting remix.aif
----------------------------------------------------------------------------------------------

 Number of files:	7
 Official DR value:	DR13

==============================================================================================

 

Creative Commons License
La Giardino di Gigli Rosa by XR1300 is licensed under a Creative Commons Attribution-ShareAlike 3.0 Unported License.

 

 

back to the top
back to the index
send comments