Rose Fioriscono Di Nuovo II (remixed August 2015)

Rose Fioriscono Di Nuovo II is another remix EP of our 4th album La Giardino di Gigli Rosa, plus some odds and sods to boot. Stardance is a dance remix of the RCB drone track Stardrone, and Friday Night At Club Yuri is a new track.

 

  Rose Fioriscono Di Nuovo II
Rose Fioriscono Di Nuovo II
 

friday night at club yuri (5:55) [explicit]
the garden of pink lilies remix (3:31)
the surreal side of French (2:53)
pink flowers bloom at midnight (3:36) [explicit]
take off! remix (5:49)
life in a rainstorm remix (8:01)
stardance (26:31)
total time: 56:17

[ flac ]
[ flac ]
[ flac ]
[ flac ]
[ flac ]
[ flac ]
[ flac ]

 

Look at the album artwork
Released: 13 October 2015
Catalog number: OSC032XR007LP56:17

samples

the garden of pink lilies remix — contains samples of Drums for Electro Pop by RutgerMuller and Bee & Flowers by nigelcoop.

the surreal side of French remix — contains a sample of PopOffAmenBreak by DjCHAOS.

pink flowers bloom at midnight remix — contains a sample of Solfeggio-Combination 174, 741 and 417 Hz by the_very_Real_Horst.

life in a rainstorm remix — contains samples of west ham bubbles by zedkah, moan by AmyG, Heavy rain on conservatory roof by earthsounds, RainHittingYurtRoof1 by daveincamas, Sexual Intercourse - Female Moans by From_Freesound_Org, factorytalk1 by Charliefarley, electro 808 looptool 120 by keinzweiter, Jungle Rainfall by nonzeroenfilade and 4propri8_boatos_gossipby vnss.

stardance — contains samples of Scary harbour atmosphere by Kyster, Day Ambience Traffic Birds Mutted Laughter Plane by kvgarlic and epanody--heavy_sighing by epanody.

 

Dynamic range stats

----------------------------------------------------------------------------------------------
 DR		Peak		RMS		Filename
----------------------------------------------------------------------------------------------

 DR12		-1.28 dB 	-14.28 dB 	01 friday night at club yuri.aif
 DR13		-2.55 dB 	-17.49 dB 	02 the garden of pink lilies remix.aif
 DR14		-1.02 dB 	-16.07 dB 	03 the surreal side of French remix.aif
 DR14		-1.30 dB 	-18.29 dB 	04 pink flowers bloom at midnight.aif
 DR13		-1.22 dB 	-16.98 dB 	05 take off! remix.aif
 DR13		-0.85 dB 	-16.08 dB 	06 life in a rainstorm remix.aif
 DR15		-2.09 dB 	-18.16 dB 	07 stardance.aif
----------------------------------------------------------------------------------------------

 Number of files:	7
 Official DR value:	DR13

==============================================================================================

 

Creative Commons License
La Giardino di Gigli Rosa by XR1300 is licensed under a Creative Commons Attribution-ShareAlike 3.0 Unported License.

 

 

back to the top
back to the index
send comments