Xambient II — More RCB Remixes (remixed September 2015)

Xambient II — More RCB Remixes is a follow up to the Xambient album. There probably won't be a third Xambient album, though a drone remix project might be coming soon(ish). I was impressed how well Sundrone and Stardrone transformed into dance songs.

 

  Xambient II — More RCB Remixes
Xambient II — More RCB Remixes
 

rooms remix (13:00)
hero III remix (3:30) [explicit]
decibel [hardcore motherfucker] (5:42) [explicit]
God bless the Sailor Scouts remix (1:41)
red remix (1:36)
sudore remix (6:04)
winter remix (4:14)
sorellina remix (3:52) [explicit]
infibulation remix (1:57)
rire remix (4:41)
pezzente remix (1:56)
guardian remix (4:51)
sundance (26:38)
total time: 79:37

[ flac ]
[ flac ]
[ flac ]
[ flac ]
[ flac ]
[ flac ]
[ flac ]
[ flac ]
[ flac ]
[ flac ]
[ flac ]
[ flac ]
[ flac ]

 

Look at the album artwork
Released: 13 November 2015
Catalog number: OSC033XR008LP79:37

samples

rooms remix — contains samples of "Taxi Dispatch," "Computer Room Ambience" downloaded from usenet, and cortes ferry announcement by Kristen Roos

hero III — contains samples of Dick Howser goes nuts!

God bless the Sailor Scouts remix contains samples of Dry Thunder3 by juskiddink, shortwv minid c russ vox loop 5 by ERH, and Sewage Low Throb, Busy Electrical Work Area and Coffin Factory Ambiance 6, all downloaded from usenet many years ago.

rire remix — contains samples of Girls Laugh 2 by engreitz, Girl Laugh by lmbubec and Giggling French girls by acclivity

pezzente contains samples of Ragazze che litiga583933f

guardian contains a sample of Suburbs Ambient Spring Day downloaded from usenet.

sundance contains samples of Quiet City Ambiance 2 by ultradust, air conditioner by BeatsbyCasper, porto_morning_glockenspiel_29 by mhusinsky, corrupted_faster and moan both by AmyGee, Light_rain by Audiactiva, Dawn chorus by juskiddink, whatever happened to music with tunes you could hum along with by epanody.

 

Dynamic range stats


----------------------------------------------------------------------------------------------
 DR		Peak		RMS		Filename
----------------------------------------------------------------------------------------------

 DR15		-0.00 dB 	-15.90 dB 	01 rooms2014 remix.aiff
 DR14		-0.74 dB 	-16.92 dB 	02 hero III remix.aif
 DR12		-1.88 dB 	-15.86 dB 	03 decibel hardcore motherfucker.aiff
 DR13		-1.25 dB 	-15.56 dB 	04 God bless the Sailor Scouts remix.aif
 DR13		-0.59 dB 	-15.33 dB 	05 red remix.aiff
 DR12		-0.80 dB 	-14.51 dB 	06 sudore remix.aiff
 DR15		-1.53 dB 	-19.57 dB 	07 Winter remix.aiff
 DR14		-0.82 dB 	-16.23 dB 	08 sorellina remix.aiff
 DR15		-1.94 dB 	-18.28 dB 	09 infibulation remix.aif
 DR15		-0.47 dB 	-16.84 dB 	10 rire remix.aif
 DR13		-1.73 dB 	-16.40 dB 	11 pezzente remix.aif
 DR12		-0.00 dB 	-13.70 dB 	12 guardian remix.aif
 DR17		-0.74 dB 	-18.99 dB 	13 sundance.aif
----------------------------------------------------------------------------------------------

 Number of files:	13
 Official DR value:	DR14

==============================================================================================

 

Creative Commons License
Xambient II -- More RCB Remixes by XR1300 is licensed under a Creative Commons Attribution-ShareAlike 3.0 Unported License.

 

 

back to the top
back to the index
send comments